ExtraTorrent

Login   |   Register   |   Home
Browse Torrents
| Search Cloud | | | | | FAQ  
» » Goosebumps 2 Haunted Halloween 2018 1080p BluRay x264 DTS 5 1 MSubS - Hon3yHD

Download Goosebumps 2 Haunted Halloween 2018 1080p BluRay x264 DTS 5 1 MSubS - Hon3yHD extratorrent


Download torrent: Download Magnet Goosebumps 2 Haunted Halloween 2018 1080p BluRay x264 DTS 5 1 MSubS - Hon3yHD
Info hash 389316DA7B9303D0555020731DBF6002CEFD47EE
Torrent ID13980900
Comments: Sort Read Comments
Category: Movies
Health:
 Seeders: 3 |  Leechers: 4 |  Completed: 563
Torrent language: English English
Total Size: 4.4 GB
Uploader: Hon3yHD Trusted Uploader Site Friend Superman Sun
Torrent added: 08-01-2019, 10:55:05
Views: 43



Extratorrent Download Torrent






Goosebumps 2 Haunted Halloween 2018 1080p BluRay x264 DTS 5.1 MSubS - Hon3yHD

Source: BD50 @ WatchHD. Thanks !

Format : Matroska
Format version : Version 4 / Version 2
File size : 4.37 GiB
Duration : 1 h 29 min
Overall bit rate : 6 972 kb/s
Movie name : Goosebumps 2 Haunted Halloween 2018 - Hon3yHD


Video
ID : 1
Format : AVC
Format/Info : Advanced Video Codec
Format profile : [email protected]
Format settings, CABAC : Yes
Format settings, ReFrames : 5 frames
Codec ID : V_MPEG4/ISO/AVC
Duration : 1 h 29 min
Bit rate : 6 203 kb/s
Width : 1 920 pixels
Height : 800 pixels
Display aspect ratio : 2.40:1
Frame rate mode : Constant
Frame rate : 23.976 (24000/1001) FPS
Language : English
Default : Yes
Forced : No
Color range : Limited
Color primaries : BT.709
Transfer characteristics : BT.709
Matrix coefficients : BT.709

Audio
ID : 2
Format : DTS
Format/Info : Digital Theater Systems
Mode : 16
Format settings, Endianness : Big
Codec ID : A_DTS
Duration : 1 h 29 min
Bit rate mode : Constant
Bit rate : 768 kb/s
Channel(s) : 6 channels
Channel positions : Front: L C R, Side: L R, LFE
Sampling rate : 48.0 kHz
Frame rate : 93.750 FPS (512 spf)
Bit depth : 24 bits
Compression mode : Lossy
Stream size : 493 MiB (11%)
Language : English
Default : Yes
Forced : No

Text #1
ID : 3
Format : UTF-8
Codec ID : S_TEXT/UTF8
Codec ID/Info : UTF-8 Plain Text
Duration : 1 h 28 min
Bit rate : 64 b/s
Count of elements : 1380
Stream size : 42.2 KiB (0%)
Title : SDH
Language : English
Default : Yes
Forced : No

Text #2
ID : 4
Format : UTF-8
Codec ID : S_TEXT/UTF8
Codec ID/Info : UTF-8 Plain Text
Duration : 1 h 27 min
Bit rate : 56 b/s
Count of elements : 1089
Stream size : 36.1 KiB (0%)
Language : English
Default : No
Forced : No

Text #3
ID : 5
Format : UTF-8
Codec ID : S_TEXT/UTF8
Codec ID/Info : UTF-8 Plain Text
Duration : 1 h 28 min
Bit rate : 39 b/s
Count of elements : 1018
Stream size : 25.9 KiB (0%)
Language : French
Default : No
Forced : No

Text #4
ID : 6
Format : UTF-8
Codec ID : S_TEXT/UTF8
Codec ID/Info : UTF-8 Plain Text
Duration : 1 h 28 min
Bit rate : 54 b/s
Count of elements : 1121
Stream size : 35.1 KiB (0%)
Language : Spanish
Default : No
Forced : No

Text #5
ID : 7
Format : UTF-8
Codec ID : S_TEXT/UTF8
Codec ID/Info : UTF-8 Plain Text
Duration : 49 min 40 s
Bit rate : 0 b/s
Count of elements : 4
Stream size : 140 Bytes (0%)
Language : French
Default : No
Forced : No

Menu
00:00:00.000 : :Chapter 01
00:04:33.440 : :Chapter 02
00:11:16.175 : :Chapter 03
00:18:43.914 : :Chapter 04
00:21:41.634 : :Chapter 05
00:27:23.350 : :Chapter 06
00:32:37.122 : :Chapter 07
00:37:48.433 : :Chapter 08
00:45:14.921 : :Chapter 09
00:50:11.717 : :Chapter 10
00:56:17.708 : :Chapter 11
01:00:35.757 : :Chapter 12
01:05:28.133 : :Chapter 13
01:09:25.119 : :Chapter 14
01:14:37.932 : :Chapter 15
01:20:29.324 : :Chapter 16






   


Related Torrents




Recent Searches

Home - Browse Torrents - Upload Torrent - Recent Torrents - Login - Register - FAQ

Can't load ExtraTorrent.Fun
2006-2019 ExtraTorrent.Fun