ExtraTorrent

Login   |   Register   |   Home
Browse Torrents
| Search Cloud | | | | | FAQ  
» » The Italian Job (2003) 1080p BluRay x264 Dual Audio [Hindi DD5 1 640 Kbps - English DD5 1] - ESUBS ~ Ranvijay

Download The Italian Job (2003) 1080p BluRay x264 Dual Audio [Hindi DD5 1 640 Kbps - English DD5 1] - ESUBS ~ Ranvijay extratorrent


Download torrent: Download Magnet The Italian Job (2003) 1080p BluRay x264 Dual Audio [Hindi DD5 1 640 Kbps - English DD5 1] - ESUBS ~ Ranvijay
Info hash 5FFD9B03B96F219B0F4C9590F64DBCADD2F7A141
Torrent ID13980920
Comments: Sort Read Comments
Category: Movies
Health:
 Seeders: 4 |  Leechers: 3 |  Completed: 116
Torrent language: Hindi Hindi
Total Size: 4.7 GB
Uploader: TheFighter Trusted Uploader Site Friend Superman Sun
Torrent added: 08-01-2019, 11:20:04
Views: 81



Extratorrent Download Torrent









Join My Facebook Group

The Italian Job (2003) 1080p BluRay x264 Dual Audio [Hindi DD5.1 640 Kbps - English DD5.1] - ESUBS ~ Ranvijay

Thanks To Hammer For Hindi Audio

Buy RDP Online




Format : Matroska
Format version : Version 4 / Version 2
File size : 4.72 GiB
Duration : 1 h 50 min
Overall bit rate : 6 108 kb/s
Movie name : The Italian Job (2003) 1080p BluRay x264 Dual Audio [Hindi DD5.1 640 Kbps - English DD5.1] - ESUBS ~ Ranvijay

Video
ID : 1
Format : AVC
Format/Info : Advanced Video Codec
Format profile : [email protected]
Duration : 1 h 50 min
Bit rate : 5 000 kb/s
Width : 1 920 pixels
Height : 816 pixels
Display aspect ratio : 2.35:1
Frame rate mode : Constant
Frame rate : 23.976 (24000/1001) FPS
Color space : YUV
Chroma subsampling : 4:2:0
Bit depth : 8 bits
Scan type : Progressive
Bits/(Pixel*Frame) : 0.133
Stream size : 3.86 GiB (82%)
Title : ~Ranvijay~

Audio #1
ID : 2
Format : AC-3
Format/Info : Audio Coding 3
Codec ID : A_AC3
Duration : 1 h 50 min
Bit rate mode : Constant
Bit rate : 640 kb/s
Channel(s) : 6 channels
Channel positions : Front: L C R, Side: L R, LFE
Sampling rate : 48.0 kHz
Frame rate : 31.250 FPS (1536 SPF)
Bit depth : 16 bits
Compression mode : Lossy
Delay relative to video : 1 s 400 ms
Stream size : 506 MiB (10%)
Title : ~Ranvijay~
Language : Hindi
Service kind : Complete Main
Default : Yes
Forced : Yes

Audio #2
ID : 3
Format : AC-3
Format/Info : Audio Coding 3
Codec ID : A_AC3
Duration : 1 h 50 min
Bit rate mode : Constant
Bit rate : 448 kb/s
Channel(s) : 6 channels
Channel positions : Front: L C R, Side: L R, LFE
Sampling rate : 48.0 kHz
Frame rate : 31.250 FPS (1536 SPF)
Bit depth : 16 bits
Compression mode : Lossy
Stream size : 354 MiB (7%)
Title : ~Ranvijay~
Language : English
Service kind : Complete Main
Default : No
Forced : No

Text #1
ID : 4
Format : PGS
Muxing mode : zlib
Codec ID : S_HDMV/PGS
Codec ID/Info : Picture based subtitle format used on BDs/HD-DVDs
Duration : 1 h 43 min
Bit rate : 31.5 kb/s
Count of elements : 2366
Stream size : 23.3 MiB (0%)
Title : ~Ranvijay~
Language : English
Default : Yes
Forced : Yes

Text #2
ID : 5
Format : PGS
Muxing mode : zlib
Codec ID : S_HDMV/PGS
Codec ID/Info : Picture based subtitle format used on BDs/HD-DVDs
Duration : 1 h 43 min
Bit rate : 37.6 kb/s
Count of elements : 2780
Stream size : 27.9 MiB (1%)
Title : ~Ranvijay~
Language : English
Default : No
Forced : No

Menu
00:00:00.000 : en:00:00:00.000
00:02:26.978 : en:00:02:26.978
00:05:27.451 : en:00:05:27.451
00:11:26.726 : en:00:11:26.726
00:16:49.006 : en:00:16:49.006
00:24:01.439 : en:00:24:01.439
00:30:04.343 : en:00:30:04.343
00:40:30.301 : en:00:40:30.301
00:54:58.919 : en:00:54:58.919
01:01:34.439 : en:01:01:34.439
01:08:08.291 : en:01:08:08.291
01:16:50.438 : en:01:16:50.438
01:23:27.710 : en:01:23:27.710
01:28:36.435 : en:01:28:36.435
01:34:55.146 : en:01:34:55.146
01:40:17.385 : en:01:40:17.385

















Don't walk as you are king, walk as you don't care who the king is....!!

[/b]





   


Related Torrents




Recent Searches

Home - Browse Torrents - Upload Torrent - Recent Torrents - Login - Register - FAQ

Can't load ExtraTorrent.Fun
2006-2019 ExtraTorrent.Fun