ExtraTorrent

Login   |   Register   |   Home
Browse Torrents
| Search Cloud | | | | | FAQ  
» » Love Sonia (2018) Hindi 720p WEB-DL x264 AC3 2 0-Sun George

Download Love Sonia (2018) Hindi 720p WEB-DL x264 AC3 2 0-Sun George extratorrent


Download torrent: Download Magnet Love Sonia (2018) Hindi 720p WEB-DL x264 AC3 2 0-Sun George
Info hash E6933A92FD5570B1E83DAC829AC18EFC1DE51521
Torrent ID13980922
Comments: Sort Read Comments
Category: Movies
Health:
 Seeders: 7 |  Leechers: 6 |  Completed: 302
Torrent language: Hindi Hindi
Total Size: 1.5 GB
Uploader: Sungeorge Trusted Uploader Site Friend Superman Sun
Torrent added: 08-01-2019, 11:40:04
Views: 103



Extratorrent Download Torrent



Love Sonia (2018) Hindi 720p WEB-DL x264 AC3 2.0-Sun George






https://www.imdb.com/title/tt3823392/









For Direct Links Visit: http://FilmMaza.Org














===================================================================


General
Format : Matroska
Format version : Version 4 / Version 2
File size : 1.45 GiB
Duration : 2 h 3 min
Overall bit rate : 1 677 kb/s
Movie name : Love Sonia (2018) Hindi 720p WEB-DL x264 AC3 2.0-Sun George


===================================================================


Video
ID : 1
Format : AVC
Format/Info : Advanced Video Codec
Format profile : [email protected]
Format settings : CABAC / 4 Ref Frames
Format settings, CABAC : Yes
Format settings, RefFrames : 4 frames
Codec ID : V_MPEG4/ISO/AVC
Duration : 2 h 3 min
Bit rate : 1 500 kb/s
Width : 1 280 pixels
Height : 720 pixels
Display aspect ratio : 16:9
Frame rate mode : Variable
Frame rate : 24.000 FPS
Color space : YUV
Chroma subsampling : 4:2:0
Bit depth : 8 bits
Scan type : Progressive
Bits/(Pixel*Frame) : 0.068
Stream size : 1.28 GiB (88%)
Title : Sun George


===================================================================


Audio
ID : 2
Format : AC-3
Format/Info : Audio Coding 3
Codec ID : A_AC3
Duration : 2 h 3 min
Bit rate mode : Constant
Bit rate : 192 kb/s
Channel(s) : 2 channels
Channel positions : Front: L R
Sampling rate : 48.0 kHz
Frame rate : 31.250 FPS (1536 SPF)
Bit depth : 16 bits
Compression mode : Lossy
Stream size : 170 MiB (11%)
Title : Sun George
Language : Hindi
Service kind : Complete Main
Default : Yes
Forced : No



















   


Related Torrents




Recent Searches

Home - Browse Torrents - Upload Torrent - Recent Torrents - Login - Register - FAQ

Can't load ExtraTorrent.Fun
2006-2019 ExtraTorrent.Fun