ExtraTorrent

Login   |   Register   |   Home
Browse Torrents
| Search Cloud | | | | | FAQ  
» » Spinning Man - Doppia colpa (2018) 720p H264 italian english Ac3-5 1 sub ita eng-MIRCrew

Download Spinning Man - Doppia colpa (2018) 720p H264 italian english Ac3-5 1 sub ita eng-MIRCrew extratorrent


Download torrent: Download Magnet Spinning Man - Doppia colpa (2018) 720p H264 italian english Ac3-5 1 sub ita eng-MIRCrew
Info hash B71076E66E129659325A1ABCFFAA02D06AD58A61
Torrent ID13981022
Comments: Sort Read Comments
Category: Movies
Health:
 Seeders: 29 |  Leechers: 5 |  Completed: 7
Torrent language: English English
Total Size: 1.9 GB
Uploader: robbyrs Trusted Uploader Site Friend Superman Sun
Torrent added: 08-01-2019, 16:00:08
Views: 47



Extratorrent Download Torrent



Spinning Man - Doppia colpa (2018).720p.H264.italian.english.Ac3-5.1.sub.ita.eng-MIRCrew


NO FOUND ONLY ORIGINAL RELEASE

My release is always in double track audio italian and Original audio
for select it use VLC or dvd player home
not use wmp

Spinning Man (2018)

Quality MIRCrew on HD 720p da 1,9 gb







Regia di Simon Kaijser
Titolo originale: Spinning Man.
Genere Drammatico, Thriller
USA, 2018
durata 100 minuti



Odeya Rush, Pierce Brosnan, Guy Pearce, Minnie Driver, Alexandra Shipp, Clark Gregg




Uno stimato professore viene coinvolto nella scomparsa di una ragazza. Dovrà dimostrare di essere innocente, anche di fronte alla moglie.



A happily married professor, known for having many affairs with students, becomes the prime suspect when a young woman has gone missing.







General
Unique ID : 114657571737534664505746618975075382035 (0x56423EBD4D10A330AD1671EBA9333313)
Complete name : Spinning Man (2018).720p.h264.ita.eng.sub.ita.eng-MIRCrew\Spinning Man (2018).720p.h264.ita.eng.sub.ita.eng-MIRCrew.mkv
Format : Matroska
Format version : Version 4 / Version 2
File size : 1.86 GiB
Duration : 1h 40mn
Overall bit rate : 2 650 Kbps
Movie name : MIRCrew
Encoded date : UTC 2019-01-04 14:13:16
Writing application : mkvmerge v26.0.0 ('In The Game') 64-bit
Writing library : Lavf54.63.100
COMMENT : mircrew-releases

Video
ID : 1
Format : AVC
Format/Info : Advanced Video Codec
Format profile : [email protected]
Format settings, CABAC : Yes
Format settings, ReFrames : 2 frames
Codec ID : V_MPEG4/ISO/AVC
Duration : 1h 40mn
Bit rate : 1 900 Kbps
Width : 1 280 pixels
Height : 528 pixels
Display aspect ratio : 2.40:1
Frame rate mode : Variable
Frame rate : 23.976 fps
Color space : YUV
Chroma subsampling : 4:2:0
Bit depth : 8 bits
Scan type : Progressive
Bits/(Pixel*Frame) : 0.117
Stream size : 1.29 GiB (69%)
Title : MIRCrew
Writing library : x264 core 130 r2273
Encoding settings : cabac=1 / ref=2 / deblock=1:0:0 / analyse=0x1:0x131 / me=hex / subme=7 / psy=1 / psy_rd=1.00:0.00 / mixed_ref=0 / me_range=16 / chroma_me=1 / trellis=1 / 8x8dct=0 / cqm=0 / deadzone=21,11 / fast_pskip=1 / chroma_qp_offset=-2 / threads=6 / lookahead_threads=1 / sliced_threads=0 / nr=0 / decimate=1 / interlaced=0 / bluray_compat=0 / constrained_intra=0 / bframes=3 / b_pyramid=0 / b_adapt=1 / b_bias=0 / direct=3 / weightb=1 / open_gop=0 / weightp=2 / keyint=230 / keyint_min=23 / scenecut=40 / intra_refresh=0 / rc_lookahead=40 / rc=abr / mbtree=1 / bitrate=1900 / ratetol=1.0 / qcomp=0.60 / qpmin=10 / qpmax=69 / qpstep=4 / vbv_maxrate=24000 / vbv_bufsize=24000 / nal_hrd=none / ip_ratio=1.40 / aq=1:1.00
Language : Italian
Default : Yes
Forced : No
DURATION : 01:40:36.072000000
NUMBER_OF_FRAMES : 144721
NUMBER_OF_BYTES : 1418835779
_STATISTICS_WRITING_APP : mkvmerge v26.0.0 ('In The Game') 64-bit
_STATISTICS_WRITING_DATE_UTC : 2019-01-05 16:56:22
_STATISTICS_TAGS : BPS DURATION NUMBER_OF_FRAMES NUMBER_OF_BYTES

Audio #1
ID : 2
Format : AC-3
Format/Info : Audio Coding 3
Mode extension : CM (complete main)
Codec ID : A_AC3
Duration : 1h 40mn
Bit rate mode : Constant
Bit rate : 384 Kbps
Channel(s) : 6 channels
Channel positions : Front: L C R, Side: L R, LFE
Sampling rate : 48.0 KHz
Bit depth : 16 bits
Compression mode : Lossy
Delay relative to video : -5ms
Stream size : 276 MiB (14%)
Title : Ita Ac3 5.1
Language : Italian
Default : Yes
Forced : No
DURATION : 01:40:36.128000000
NUMBER_OF_FRAMES : 188629
NUMBER_OF_BYTES : 289734144
_STATISTICS_WRITING_APP : mkvmerge v26.0.0 ('In The Game') 64-bit
_STATISTICS_WRITING_DATE_UTC : 2019-01-05 16:56:22
_STATISTICS_TAGS : BPS DURATION NUMBER_OF_FRAMES NUMBER_OF_BYTES

Audio #2
ID : 3
Format : AC-3
Format/Info : Audio Coding 3
Mode extension : CM (complete main)
Codec ID : A_AC3
Duration : 1h 40mn
Bit rate mode : Constant
Bit rate : 384 Kbps
Channel(s) : 6 channels
Channel positions : Front: L C R, Side: L R, LFE
Sampling rate : 48.0 KHz
Bit depth : 16 bits
Compression mode : Lossy
Delay relative to video : -5ms
Stream size : 276 MiB (14%)
Title : Eng Ac3 5.1
Language : English
Default : No
Forced : No
DURATION : 01:40:36.096000000
NUMBER_OF_FRAMES : 188628
NUMBER_OF_BYTES : 289732608
_STATISTICS_WRITING_APP : mkvmerge v26.0.0 ('In The Game') 64-bit
_STATISTICS_WRITING_DATE_UTC : 2019-01-05 16:56:22
_STATISTICS_TAGS : BPS DURATION NUMBER_OF_FRAMES NUMBER_OF_BYTES

Menu
00:00:00.000 : :1
00:11:26.000 : :2
00:25:41.000 : :3
00:36:45.000 : :4
00:47:26.000 : :5
00:58:08.000 : :6
01:09:21.000 : :7
01:21:59.000 : :8
01:30:55.000 : :9
01:37:24.000 : :10





   


Related Torrents




Recent Searches

Home - Browse Torrents - Upload Torrent - Recent Torrents - Login - Register - FAQ

Can't load ExtraTorrent.Fun
2006-2019 ExtraTorrent.Fun