ExtraTorrent

Login   |   Register   |   Home
Browse Torrents
| Search Cloud | | | | | FAQ  
» » Generation Aami 2018 Bengali 720p WEB-DL x264 AAC { TaRa } mkv

Download Generation Aami 2018 Bengali 720p WEB-DL x264 AAC { TaRa } mkv extratorrent


Download torrent: Download Magnet Generation Aami 2018 Bengali 720p WEB-DL x264 AAC { TaRa } mkv
Info hash 95040BAC1E775834018541D9C68C4E3A7988A7B1
Torrent ID13981033
Comments: Sort Read Comments
Category: Movies
Health:
 Seeders: 9 |  Leechers: n/a |  Completed: 311
Torrent language: Bengali/Bangla Bengali/Bangla
Total Size: 958.9 MB
Uploader: SkTara Trusted Uploader Site Friend Superman Sun
Torrent added: 08-01-2019, 16:35:05
Views: 72



Extratorrent Download Torrent




Generation Aami 2018 Bengali 720p WEB-DL x264 AAC { TaRa }.mkv


===================================================================
General
Complete name : Generation Aami 2018 Bengali 720p WEB-DL x264 AAC { TaRa }.mkv
Format : Matroska
Format version : Version 4
File size : 958 MiB
Duration : 1 h 59 min
Overall bit rate : 1 123 kb/s
===================================================================
Video
ID : 1
Format : AVC
Format/Info : Advanced Video Codec
Format profile : [email protected]
Format settings : CABAC / 4 Ref Frames
Format settings, CABAC : Yes
Format settings, ReFrames : 4 frames
Codec ID : V_MPEG4/ISO/AVC
Duration : 1 h 59 min
Bit rate : 1 000 kb/s
Width : 1 280 pixels
Height : 544 pixels
Display aspect ratio : 2.35:1
Frame rate mode : Constant
Frame rate : 24.000 FPS
Color space : YUV
Chroma subsampling : 4:2:0
Bit depth : 8 bits
Scan type : Progressive
Bits/(Pixel*Frame) : 0.060
Stream size : 847 MiB (88%)
Title : .....::::: TaRa :::::.....
Language : Bengali
Default : Yes
Forced : No
===================================================================
Audio
ID : 2
Format : AAC LC
Format/Info : Advanced Audio Codec Low Complexity
Codec ID : A_AAC-2
Duration : 1 h 59 min
Bit rate : 129 kb/s
Channel(s) : 2 channels
Channel layout : L R
Sampling rate : 48.0 kHz
Frame rate : 46.875 FPS (1024 SPF)
Compression mode : Lossy
Delay relative to video : -54 ms
Stream size : 110 MiB (11%)
Title : .....::::: TaRa :::::.....
Language : Bengali
Default : Yes
Forced : No
===================================================================









































   


Related Torrents




Recent Searches

Home - Browse Torrents - Upload Torrent - Recent Torrents - Login - Register - FAQ

Can't load ExtraTorrent.Fun
2006-2019 ExtraTorrent.Fun