ExtraTorrent

Login   |   Register   |   Home
Browse Torrents
| Search Cloud | | | | | FAQ  
» » Great Alaskan and Canadian Railroad Journeys S01E02 (1280x720p HD, 50fps, soft Eng subs)

Download Great Alaskan and Canadian Railroad Journeys S01E02 (1280x720p HD, 50fps, soft Eng subs) extratorrent


Download torrent: Download Magnet Great Alaskan and Canadian Railroad Journeys S01E02 (1280x720p HD, 50fps, soft Eng subs)
Info hash F80C762402BCB7F63535324DC2136569EB81C49F
Torrent ID13981246
Comments: Sort Read Comments
Category: TV
Health:
 Seeders: 2 |  Leechers: n/a |  Completed: 1
Torrent language: English English
Total Size: 1.1 GB
Uploader: ElsonRoa Trusted Uploader Site Friend Superman Sun
Torrent added: 09-01-2019, 00:50:04
Views: 50



Extratorrent Download Torrent



Great Alaskan and Canadian Railroad Journeys S01E02 (1280x720p HD, 50fps, soft Eng subs)

Steered by his Appleton's Guidebook to Alaska, Michael Portillo is in Anchorage preparing to join the US Arctic Warriors for parachute training at joint forces base Elmendorf-Richardson. The historic role of the military in Alaska since its purchase from Russia in 1867 underlines to him the strategic importance of the 49th state in two World Wars and how that continues today.

A magical encounter with the cabbage fairies in Palmer teaches Michael a thing or two about growing vegetables close to the Arctic Circle. 19 hours of daylight and a quarter of an inch of new soil every year leads to 127-pound cabbages and the sweetest tomatoes he has ever tasted. Child's play, according to six-year-old gardener Daisy.

In an underground sod house built from driftwood and whalebone, Michael hears how the language and traditions of indigenous people in Alaska were suppressed by the United States. After a plate of smoked and dried fish with his indigenous host, he heads for the gym at the Alaska Native Heritage Centre, where athletes train to compete in extraordinary sports at the annual World Eskimo-Indian Olympics. Michael's chosen event is the Eskimo stick pull. Keeping the Alaska Railroad running is not for the faint-hearted. Michael joins the maintenance team on a 30-foot snow-spreader, which keeps the tracks clear in winter.

First broadcast: 8 January 2019
Duration: 30 minutes

Torrent dead? Request reseed at 1337x.to or torrentgalaxy.org - or ask at elsonroa at tutanota.com



Media info:-
General
Format : MPEG-4
Format profile : Base Media
Codec ID : isom (isom/iso2/avc1/mp41)
File size : 1.07 GiB
Duration : 29mn 0s
Overall bit rate mode : Variable
Overall bit rate : 5 294 Kbps
Writing application : Lavf57.83.100

Video
ID : 1
Format : AVC
Format/Info : Advanced Video Codec
Format profile : [email protected]
Format settings, CABAC : Yes
Format settings, ReFrames : 4 frames
Codec ID : avc1
Codec ID/Info : Advanced Video Coding
Duration : 29mn 0s
Bit rate : 4 969 Kbps
Width : 1 280 pixels
Height : 720 pixels
Display aspect ratio : 16:9
Frame rate mode : Constant
Frame rate : 50.000 fps
Color space : YUV
Chroma subsampling : 4:2:0
Bit depth : 8 bits
Scan type : Progressive
Bits/(Pixel*Frame) : 0.108
Stream size : 1.01 GiB (94%)
Encoded date : UTC 1904-01-01 00:00:00
Tagged date : UTC 1904-01-01 00:00:00
Color range : Limited
Color primaries : BT.709
Transfer characteristics : BT.709
Matrix coefficients : BT.709

Audio
ID : 2
Format : AAC
Format/Info : Advanced Audio Codec
Format profile : LC
Codec ID : 40
Duration : 29mn 0s
Bit rate mode : Variable
Bit rate : 320 Kbps
Channel(s) : 2 channels
Channel positions : Front: L R
Sampling rate : 48.0 KHz
Frame rate : 46.875 fps (1024 spf)
Compression mode : Lossy
Stream size : 65.8 MiB (6%)
Language : English





   


Related Torrents




Recent Searches

Home - Browse Torrents - Upload Torrent - Recent Torrents - Login - Register - FAQ

Can't load ExtraTorrent.Fun
2006-2019 ExtraTorrent.Fun