ExtraTorrent

Login   |   Register   |   Home
Browse Torrents
| Search Cloud | | | | | FAQ  
» » Great Alaskan and Canadian Railroad Journeys S01E01 Ninilchik to Spencer Whistlestop (1280x720p HD, 50fps, soft Eng subs)

Download Great Alaskan and Canadian Railroad Journeys S01E01 Ninilchik to Spencer Whistlestop (1280x720p HD, 50fps, soft Eng subs) extratorrent


Download torrent: Download Magnet Great Alaskan and Canadian Railroad Journeys S01E01 Ninilchik to Spencer Whistlestop (1280x720p HD, 50fps, soft Eng subs)
Info hash 6D41D68058AFE31EE2BFE6275718ECE40CE06A1E
Torrent ID13981247
Comments: Sort Read Comments
Category: TV
Health:
 Seeders: 1 |  Leechers: n/a |  Completed: n/a
Torrent language: English English
Total Size: 1.1 GB
Uploader: ElsonRoa Trusted Uploader Site Friend Superman Sun
Torrent added: 09-01-2019, 00:50:04
Views: 39



Extratorrent Download Torrent



Great Alaskan and Canadian Railroad Journeys S01E01 Ninilchik to Spencer Whistlestop (1280x720p HD, 50fps, soft Eng subs)

Michael Portillo heads for the Last Frontier of the United States armed with his 1899 Appleton's Guide-Book to Alaska. Written by an intrepid 19th-century female explorer, the book points Michael to 'sublime scenery' in the 49th state and fresh insight into the newly explored lives and customs of its inhabitants.

Beginning his journey amid the snow-capped mountains and ice-cold inlets of the Kenai Peninsula, Michael finds the golden onion domes of a Russian Orthodox church along with traditional Russian food and costume and discovers that, 150 years ago, Alaska was a Russian colony.

In Seward, Michael feeds a rescued sea otter pup with a fearsome bite and learns how the luxurious pelts of these endearing creatures were once the most valuable in the world. On a boat trip around Seward Harbour, Michael hears from an indigenous former Alaskan state senator how, shortly before his guidebook was published, the Russian Empire sold Alaska to the United States and he learns of the brutality of Russian fur traders towards Native Alaskans. Heading north on the Alaska Railroad past lakes and glaciers and through mountain tunnels, Michael learns from an enthusiast what it took to build this epic 470-mile line. He is intrigued by reference in his Appleton's over a century ago to climate change and the retreat of glaciers. He joins the Glacier Discovery rail service to Spencer Whistlestop to investigate the iceberg maze at the snout of the Spencer glacier aboard a rubber raft.

First broadcast: 7 January 2019
Duration: 30 minutes

Torrent dead? Request reseed at 1337x.to or torrentgalaxy.org - or ask at elsonroa at tutanota.com



Media info:-
General
Format : MPEG-4
Format profile : Base Media
Codec ID : isom (isom/iso2/avc1/mp41)
File size : 1.08 GiB
Duration : 29mn 6s
Overall bit rate mode : Variable
Overall bit rate : 5 321 Kbps
Writing application : Lavf57.83.100

Video
ID : 1
Format : AVC
Format/Info : Advanced Video Codec
Format profile : [email protected]
Format settings, CABAC : Yes
Format settings, ReFrames : 4 frames
Codec ID : avc1
Codec ID/Info : Advanced Video Coding
Duration : 29mn 6s
Bit rate : 4 995 Kbps
Width : 1 280 pixels
Height : 720 pixels
Display aspect ratio : 16:9
Frame rate mode : Constant
Frame rate : 50.000 fps
Color space : YUV
Chroma subsampling : 4:2:0
Bit depth : 8 bits
Scan type : Progressive
Bits/(Pixel*Frame) : 0.108
Stream size : 1.02 GiB (94%)
Encoded date : UTC 1904-01-01 00:00:00
Tagged date : UTC 1904-01-01 00:00:00
Color range : Limited
Color primaries : BT.709
Transfer characteristics : BT.709
Matrix coefficients : BT.709

Audio
ID : 2
Format : AAC
Format/Info : Advanced Audio Codec
Format profile : LC
Codec ID : 40
Duration : 29mn 6s
Bit rate mode : Variable
Bit rate : 317 Kbps
Maximum bit rate : 326 Kbps
Channel(s) : 2 channels
Channel positions : Front: L R
Sampling rate : 48.0 KHz
Frame rate : 46.875 fps (1024 spf)
Compression mode : Lossy
Stream size : 66.1 MiB (6%)
Language : English





   


Related Torrents




Recent Searches

Home - Browse Torrents - Upload Torrent - Recent Torrents - Login - Register - FAQ

Can't load ExtraTorrent.Fun
2006-2019 ExtraTorrent.Fun